top of page

Lionheart Music Group

Public·69 members
Murad Prokhorov
Murad Prokhorov

The Equalizer 2014 720p BrRip X264 - YIFY TorrentThe Equalizer 2014 720p BrRip X264 - YIFY Torrentl



SOURCE IS SHOP3301...THANKS.....FOR THE FIRST VERSION THIS CAM IS VERY GOOD...VIDEO WAS SHAKY FOR LIKE THE FIRST 30 SECONDS AFTER THAT IT STRAIGHTENS OUT.....HAD TO ADJUST THE CONTRAST AND FIX THE FLICKERING THAT IT HAS HERE AND THERE AND ALSO BRIGHTENED A LITTLE BIT BUT ONLY THE DARK SCENES.....AUDIO WAS A LITTLE HOLLOW FIXED THAT HAS WELL............ENJOY.....PIMP4003 FOR REQUESTS, EXCLUSIVE MOVIES AND SUPER FAST SPEEDS AND FOR SCREENSHOTS AND SAMPLE....CLICK BELOW LINK =047e1e899715bdee134401aac8f921e4eeb84db7 The Equalizer 2014 720p FIRST ENGLISH HDCAM x264 Pimp4003ENJOYPIMP4003VideoID : 1Format : MPEG-4 VisualFormat profile : [email protected] Format settings, BVOP : NoFormat settings, QPel : NoFormat settings, GMC : No warppointsFormat settings, Matrix : Default (H.263)Codec ID : 20Duration : 2h 7mnBit rate : 2 393 KbpsWidth : 1 280 pixelsHeight : 536 pixelsDisplay aspect ratio : 2.40:1Frame rate mode : VariableFrame rate : 59.940 fpsMinimum frame rate : 59.916 fpsMaximum frame rate : 60.157 fpsColor space : YUVChroma subsampling : 4:2:0Bit depth : 8 bitsScan type : ProgressiveCompression mode : LossyBits/(Pixel*Frame) : 0.058Stream size : 2.13 GiB (95%)Writing library : ZJMedia MPEG EncoderAudioID : 2Format : AACFormat/Info : Advanced Audio CodecFormat profile : LCCodec ID : 40Duration : 2h 7mnBit rate mode : VariableBit rate : 128 KbpsChannel(s) : 2 channelsChannel positions : Front: L RSampling rate : 48.0 KHzCompression mode : LossyStream size : 117 MiB (5%)




The Equalizer 2014 720p BrRip X264 - YIFY TorrentThe Equalizer 2014 720p BrRip X264 - YIFY Torrentl



The.Equalizer.2014.720p.BluRay.x264,AC3-RPGA man believes he has put his mysterious past behind him and has dedicated himself to beginning a new, quiet life. But when he meets a young girl under the control of ultra-violent Russian gangsters, he can't stand idly by - he has to help her. Video: 2500 KbpsResolution: 1280x534Runtime: 2 h 12 min Subtitles: English,FrenchAudio: AC3 5.1 224 Kbps Language: English


About

Welcome to the group! You can connect with other members, ge...

Members

bottom of page